fastshare
Upgrade / Upgrade (2018)
Vypnout statistiky
KATEGORIEPOSLEDNÍ PŘÍSPĚVKYPOSLEDNÍ OZNÁMENÍSTATISTIKY UŽIVATELE
Nick: Anonymous
Příspěvků: 3355
Hodnost: Warman
Varování: 0
---
Právě je 20 led 2019, 13:42





Všechny časy jsou v UTC + 1 hodina


Pravidla fóra







Odeslat nové téma Odpovědět na téma  [ Příspěvků: 4 ] 
 Upgrade / Upgrade (2018) 
Autor Zpráva
Colonel 4 th class
Colonel 4 th class

Registrován: 09 bře 2009, 18:27
Příspěvky: 547
Příspěvek Upgrade / Upgrade (2018)

Upgrade.2018.1080p.BluRay.x264.DTS-2.0.CZ.HD.MA.5.1.ENG-FGT




Cover:

Upgrade / Upgrade (2018)


Info:

Jazyk: CZ 2.0, 5.1 ENG
Titulky: CZ, ENG
Kvalita zvuku: MediaInfo
Kvalita videa: MediaInfo

Csfd:

Info:


Download:


11 led 2019, 00:06
Profil
Captain
Captain

Registrován: 15 črc 2008, 21:29
Příspěvky: 260
Příspěvek Re: Upgrade / Upgrade (2018)

Upgrade / Upgrade (2018) [BR-RIP]

Akční / Thriller / Sci-Fi / Horor
Za pár let už nebudeme muset ani hnout prstem, protože moderní technologie za nás všechno obstarají. Technofobům se v takové době nebude žít zrovna lehko. Grey Trace (Logan Marshall-Green) je pověstný tím, že jako jeden z posledních lidí dává před technologiemi přednost vlastním rukám. Jedna noc, která mu obrátí život vzhůru nohama, však tenhle přístup rázně změní. Autonehoda na noční dálnici a střet s bandou grázlů, kteří mu zavraždí přítelkyni a jeho nadosmrti zmrzačí. Greyovy vyhlídky na invalidním vozíku jsou víc než temné, dokud mu kamarád vědec nenabídne technologické vylepšení...

INFO:

Re: Upgrade / Upgrade (2018)
________________________________________________________________________________

7760 MB

Video: 1920x808 - AVC/H264 - 23.976 fps - 9.1 Mbps
Audio: CZ dabing - AC3 5.1 - 448 Kbps
Audio: ENG - AC3 5.1 - 448 Kbps
Titulky: forced CZ + CZ + ENG
Čas: 1:39:55

MediaInfo
General
Format : Matroska
Format version : Version 4 / Version 2
File size : 7.23 GiB
Duration : 1h 39mn
Overall bit rate : 10.4 Mbps
Writing application : Lavf57.83.100
Writing library : Lavf57.83.100 / Lavf57.83.100
ErrorDetectionType : Per level 1

Video
ID : 1
Format : AVC
Format/Info : Advanced Video Codec
Format profile : [email protected]
Format settings, CABAC : Yes
Format settings, ReFrames : 5 frames
Codec ID : V_MPEG4/ISO/AVC
Duration : 1h 39mn
Bit rate : 9 455 Kbps
Width : 1 920 pixels
Height : 808 pixels
Display aspect ratio : 2.40:1
Frame rate mode : Constant
Frame rate : 23.976 (24000/1001) fps
Color space : YUV
Chroma subsampling : 4:2:0
Bit depth : 8 bits
Scan type : Progressive
Bits/(Pixel*Frame) : 0.254
Stream size : 6.46 GiB (89%)
Writing library : x264 core 155 r2901 7d0ff22
Encoding settings : cabac=1 / ref=5 / deblock=1:-3:-3 / analyse=0x3:0x133 / me=umh / subme=8 / psy=1 / psy_rd=1.00:0.00 / mixed_ref=1 / me_range=16 / chroma_me=1 / trellis=1 / 8x8dct=1 / cqm=0 / deadzone=21,11 / fast_pskip=0 / chroma_qp_offset=-2 / threads=25 / lookahead_threads=4 / sliced_threads=0 / nr=0 / decimate=1 / interlaced=0 / bluray_compat=0 / constrained_intra=0 / bframes=3 / b_pyramid=2 / b_adapt=1 / b_bias=0 / direct=3 / weightb=1 / open_gop=0 / weightp=2 / keyint=250 / keyint_min=23 / scenecut=40 / intra_refresh=0 / rc_lookahead=50 / rc=2pass / mbtree=1 / bitrate=9455 / ratetol=1.0 / qcomp=0.60 / qpmin=0 / qpmax=69 / qpstep=4 / cplxblur=20.0 / qblur=0.5 / vbv_maxrate=62500 / vbv_bufsize=78125 / nal_hrd=none / filler=0 / ip_ratio=1.40 / aq=1:1.00
Default : Yes
Forced : No
DURATION : 01:39:54.529000000

Audio #1
ID : 2
Format : AC-3
Format/Info : Audio Coding 3
Mode extension : CM (complete main)
Format settings, Endianness : Big
Codec ID : A_AC3
Duration : 1h 39mn
Bit rate mode : Constant
Bit rate : 448 Kbps
Channel(s) : 6 channels
Channel positions : Front: L C R, Side: L R, LFE
Sampling rate : 48.0 KHz
Frame rate : 31.250 fps (1536 spf)
Bit depth : 32 bits
Compression mode : Lossy
Stream size : 320 MiB (4%)
Writing library : Lavc57.107.100 ac3
Language : Czech
Default : Yes
Forced : No
DURATION : 01:39:54.528000000

Audio #2
ID : 3
Format : AC-3
Format/Info : Audio Coding 3
Mode extension : CM (complete main)
Format settings, Endianness : Big
Codec ID : A_AC3
Duration : 1h 39mn
Bit rate mode : Constant
Bit rate : 448 Kbps
Channel(s) : 6 channels
Channel positions : Front: L C R, Side: L R, LFE
Sampling rate : 48.0 KHz
Frame rate : 31.250 fps (1536 spf)
Bit depth : 32 bits
Compression mode : Lossy
Stream size : 320 MiB (4%)
Writing library : Lavc57.107.100 ac3
Language : English
Default : No
Forced : No
DURATION : 01:39:54.559000000

Text #1
ID : 4
Format : UTF-8
Codec ID : S_TEXT/UTF8
Codec ID/Info : UTF-8 Plain Text
Title : forced
Writing library : Lavc57.107.100 srt
Language : Czech
Default : Yes
Forced : No
DURATION : 01:15:53.535000000

Text #2
ID : 5
Format : UTF-8
Codec ID : S_TEXT/UTF8
Codec ID/Info : UTF-8 Plain Text
Writing library : Lavc57.107.100 srt
Language : Czech
Default : No
Forced : No
DURATION : 01:33:03.144000000

Text #3
ID : 6
Format : UTF-8
Codec ID : S_TEXT/UTF8
Codec ID/Info : UTF-8 Plain Text
Writing library : Lavc57.107.100 srt
Language : English
Default : No
Forced : No
DURATION : 01:33:02.733000000

FullHD - AVC

________________________________________________________________________________


Naposledy upravil hmmh dne 11 led 2019, 14:19, celkově upraveno 1

11 led 2019, 06:43
Profil
Sergeant
Sergeant

Registrován: 11 črc 2018, 23:52
Příspěvky: 83
Příspěvek Re: Upgrade / Upgrade (2018)

Upgrade (2018).FULL-HD

Jazyk: Czech
Rok vydání: 2018
Délka: 100 min
Žánr: Akční / Thriller / Sci-Fi / Horor


Re: Upgrade / Upgrade (2018)
CSFD

Upgrade.2018.Blu-Ray.CZ

Download


11 led 2019, 10:39
Profil
Warrant
Warrant

Registrován: 20 lis 2008, 18:20
Příspěvky: 180
Příspěvek Re: Upgrade / Upgrade (2018)

Upgrade.2018 1080p.X265-HEVC_DD.5.1.CZECH



Re: Upgrade / Upgrade (2018)



)..(


)..(


12 led 2019, 18:56
Profil
Zobrazit příspěvky za předchozí:  Seřadit podle  
Odeslat nové téma Odpovědět na téma  [ Příspěvků: 4 ] 

Všechny časy jsou v UTC + 1 hodina


Nemůžete zakládat nová témata v tomto fóru
Nemůžete odpovídat v tomto fóru
Nemůžete upravovat své příspěvky v tomto fóru
Nemůžete mazat své příspěvky v tomto fóru
Nemůžete přikládat soubory v tomto fóru









StahovaniZaSMS Pizza Modena MP3 free download